Monamour (2006) HD +18






Format : Matroska
File size : 3.28 GiB
Duration : 1h 38mn
Overall bit rate : 4 771 Kbps
Encoded date : UTC 2011-07-26 02:31:12
Writing application : mkvmerge v4.4.0 ('Die Wiederkehr') built on Oct 31 2010 21:52:48
Writing library : libebml v1.0.0 + libmatroska v1.0.0

Video
ID : 1
Format : AVC
Format/Info : Advanced Video Codec
Format profile : High@L4.1
Format settings, CABAC : Yes
Format settings, ReFrames : 5 frames
Muxing mode : Header stripping
Codec ID : V_MPEG4/ISO/AVC
Duration : 1h 38mn
Bit rate : 4 323 Kbps
Width : 1 280 pixels
Height : 696 pixels
Display aspect ratio : 16:9
Frame rate : 23.976 fps
Color space : YUV
Chroma subsampling : 4:2:0
Bit depth : 8 bits
Scan type : Progressive
Bits/(Pixel*Frame) : 0.202
Stream size : 2.90 GiB (89%)

Writing library : x264 core 116 r2037 f8ebd4a
Encoding settings : cabac=1 / ref=5 / deblock=1:0:0 / analyse=0x3:0x133 / me=umh / subme=7 / psy=1 / psy_rd=1.00:0.00 / mixed_ref=1 / me_range=16 / chroma_me=1 / trellis=1 / 8x8dct=1 / cqm=0 / deadzone=21,11 / fast_pskip=0 / chroma_qp_offset=-2 / threads=12 / sliced_threads=0 / nr=0 / decimate=1 / interlaced=0 / bluray_compat=0 / constrained_intra=0 / bframes=3 / b_pyramid=2 / b_adapt=1 / b_bias=0 / direct=1 / weightb=1 / open_gop=0 / weightp=2 / keyint=250 / keyint_min=23 / scenecut=40 / intra_refresh=0 / rc_lookahead=40 / rc=2pass / mbtree=1 / bitrate=4323 / ratetol=1.0 / qcomp=0.60 / qpmin=0 / qpmax=69 / qpstep=4 / cplxblur=20.0 / qblur=0.5 / ip_ratio=1.40 / aq=1:1.00
Language : English

Audio
ID : 2
Format : AC-3
Format/Info : Audio Coding 3
Mode extension : CM (complete main)
Muxing mode : Header stripping
Codec ID : A_AC3
Duration : 1h 38mn
Bit rate mode : Constant
Bit rate : 448 Kbps
Channel(s) : 6 channels
Channel positions : Front: L C R, Side: L R, LFE
Sampling rate : 48.0 KHz
Bit depth : 16 bits
Compression mode : Lossy
Stream size : 315 MiB (9%)
Language : Italian

Download (Fshare) : Click Here
Tên tập tin: Monamour_2006_720p_BluRay_DD5_1_x264-hd4u.mkv
Dung lượng: 3.3 GB

Vietsub : Click Here


Responses

0 Respones to "Monamour (2006) HD +18"

Đăng nhận xét

 

Categories

Audio (31) C# (5) C/C++ (2) Clip (29) CSS (1) Ebooks (109) Game (4) Graphics (1) Hacking (6) HD (2) Java (3) Linux (1) NetWork (28) OpenSource (7) Operating System (2) Other (40) Phim Bộ (2) Phim Lẻ (28) PHP (4) SEO (2) Software (49) SQL (4) Truyện Tranh (1) Tâm Lý (2) Windowns (5)

CPX24

Return to top of page Copyright © 2014 | Theme Download Converted into Blogger Template by Download Blog